Ultramega Ok Zip Download

Posted onby

soundgarden ultramega ok zip.rar [Full version]

Direct download

Download

Soundgarden Ultramega OK (1988) By Jago.rar

Ultramega OK (Expanded Reissue) zip download, Soundgarden – Ultramega OK (Expanded Reissue) rar download. This page includes SOUNDGARDEN Ultramega OK's: cover picture, songs / tracks list. SOUNDGARDEN MP3, Free Download/Stream. Ultramega OK (Expanded Reissue) zip download, Soundgarden – Ultramega OK (Expanded Reissue) rar download. The songs were recorded in 1. Jack Endino and Chris Hanzsek at Reciprocal Recording in Seattle, and mixed by Jack Endino in 2.

From 4shared.com59.15 MB

Soundgarden Ultramega OK (1988).rar

From mediafire.com58.87 MB

Soundgarden ultramega ok 1988

Ultramega Ok Zip Download

From mediafire.com (98 MB)

Soundgarden - Ultramega OK (1988) By Jago.rar

From 4shared.com 59.15 MB

Soundgarden ultramega ok 1988 rar

From mediafire.com (59 MB)

Soundgarden ultramega ok vinyl rip 1988 mp3 259 tinydl com full and free download

From uploaded.to (77 MB)

Soundgarden - [1987] Ultramega OK.rar

From mediafire.com 58.49 MB

Our goal is to provide high-quality video, TV streams, music, software, documents or any other shared files for free!

Registered users can also use our File Leecher to download files directly from all file hosts where it was found on. Just paste the urls you'll find below and we'll download file for you!

If you have any other trouble downloading soundgarden ultramega ok zip post it in comments and our support team or a community member will help you!

Soundgarden - Ultramega OK (1988) [Expanded Reissue 2017] - Official Digital Download


Soundgarden - Ultramega OK (1988) [Reissue 2017]
FLAC (tracks) 24-bit/44,1 kHz Time - 70:25 minutes 898 MB
Studio Master, Official Digital Download Artwork: Digital booklet
This remixed and expanded reissue of Soundgarden’s Ultramega OK is a long-planned “correction” of the legendary band’s Grammy-nominated debut full-length. The album was originally recorded and released in 1988 on SST Records. While the band enjoyed working with the original producer, Drew Canulette, they soon realized they weren’t quite happy with the final mix. Thus, shortly after the album’s release, the band decided to remix the album for subsequent pressings. However, success intervened: the band rapidly scored a deal with A&M and began work on their major-label debut, Louder Than Love, and the Ultramega OK remix project fell by the wayside as Soundgarden climbed their way to (ultra)mega-stardom.
In 2016, after worldwide success, a breakup, a reunion, and many albums and tours, the band finally acquired the original multi-track tapes to Ultramega OK and carved out time to dig into the remix. They handed the tapes over to longtime friend and engineer Jack Endino (Nirvana, Mudhoney, Screaming Trees, Skin Yard), who worked with the band to create a fresh mix of the album that, for the band, ties up this persistent loose end and remedies the sound of their debut album. While they were at it, the band dug out six early versions of tracks that wound up on Ultramega OK. The songs were recorded in 1987 on 8-track tape by Jack Endino and Chris Hanzsek at Reciprocal Recording in Seattle, and mixed by Jack Endino in 2016. These versions feature the band in raw, powerful form –sonically closer to the band’s Endino-recorded debut EP Screaming Life – and provide a fascinating window into the development of songs that eventually became staples of the band’s set. The six songs comprise what the band refers to as Ultramega EP, and they are included in this reissue. Hailed as grunge innovators, Soundgarden redefined rock music for a generation. In the ‘80s, the band - singer/guitarist Chris Cornell, guitarist Kim Thayil, bassist Hiro Yamamoto, and drummer Matt Cameron - combined a punk ethos, brutal metal soundscapes, and Cornell’s ravenous roar to capture the attention of the masses. Jagged and ferocious, their music was deeply at odds with the synth-pop and hair metal which dominated the 80’s airwaves. Early indie releases, including seminal Screaming Life and Ultramega OK, quickly led to a dedicated indie following as the band toured on both sides of the Atlantic. Subsequent albums, including Badmotorfinger, Superunknown, and Down on the Upside, achieved multi-platinum sales and launched the band to international fame.

Tracklist:
01 - Flower
02 - All Your Lies
03 - 665
04 - Beyond the Wheel
05 - 667
06 - Mood for Trouble
07 - Circle of Power
08 - He Didn't
09 - Smokestack Lightning
10 - Nazi Driver
11 - Head Injury
12 - Incessant Mace
13 - One Minute of Silence
14 - Head Injury (Early Version)
15 - Beyond the Wheel (Early Version)
16 - Incessant Mace (Short) (Early Version)
17 - He Didn't (Early Version)
18 - All Your Lies (Early Version)
19 - Incessant Mace (Long) (Early Version)
Dynamic Range Report
Analyzed: Soundgarden / Ultramega OK (Remixed Reissue 2017)
––––––––––––––––––––––––––––––––––––––––
DR Peak RMS Duration Track
––––––––––––––––––––––––––––––––––––––––
DR6 -0.17 dB -7.84 dB 3:26 01-Flower
DR7 -0.30 dB -8.39 dB 3:50 02-All Your Lies
DR8 -0.38 dB -11.65 dB 1:39 03-665
DR6 -0.40 dB -8.51 dB 4:23 04-Beyond the Wheel
DR9 -0.47 dB -12.66 dB 0:56 05-667
DR8 -0.26 dB -10.22 dB 4:21 06-Mood for Trouble
DR6 -0.08 dB -7.42 dB 2:05 07-Circle of Power
DR7 -0.31 dB -8.75 dB 2:47 08-He Didn't
DR7 -0.33 dB -8.46 dB 4:36 09-Smokestack Lightning
DR7 -0.34 dB -8.82 dB 3:52 10-Nazi Driver
DR7 -0.34 dB -8.86 dB 2:21 11-Head Injury
DR8 -0.32 dB -9.31 dB 6:22 12-Incessant Mace
DR22 -1.58 dB -35.17 dB 1:02 13-One Minute of Silence
DR7 -0.34 dB -7.98 dB 2:59 14-Head Injury (Early Version)
DR7 -0.34 dB -8.61 dB 4:55 15-Beyond the Wheel (Early Version)
DR8 -0.38 dB -9.39 dB 6:22 16-Incessant Mace (Short) (Early Version)
DR7 -0.30 dB -8.86 dB 2:54 17-He Didn't (Early Version)
DR8 -0.40 dB -9.47 dB 3:45 18-All Your Lies (Early Version)
DR9 -0.41 dB -11.08 dB 7:50 19-Incessant Mace (Long) (Early Version)
––––––––––––––––––––––––––––––––––––––––
Number of tracks: 19
Official DR value: DR8
Samplerate: 44100 Hz
Channels: 2
Bits per sample: 24
Bitrate: 1593 kbps
Codec: FLAC

Thanks to the Original customer!
More of 'Soundgarden' in Hi-Res