The Traveling Wilburys Rapidshare

Posted onby

The Traveling Wilburys Rapidshare Movies 2016 Traveling Wilburys albums had limited availability and were out of print in most territories. Harrison, as primary holder of the rights, did not reissue them prior to his 2.

  1. The Traveling Wilburys Members
  2. Youtube The Traveling Wilburys
  1. The Traveling Wilburys were always the stuff of myth -- of unlikely beginnings and heroes and, yes, even transcending death through creation. Thankfully, with their work back on the shelves, they.
  2. Traveling Wilburys - The Discography (1988-2007) Traveling Wilburys - The Singles [Box Set] (2007) FLAC The Traveling Wilburys - Collection (2CD) (2007) download links are externally hosted on Extabit, Rapidshare, Rapidgator, Netload, Uploaded and The Traveling Wilburys - Collection (2CD) (2007) also available directly on Torrent Sources.

    Price refinements - Carousel

    Showing slide {CURRENT_SLIDE} of {TOTAL_SLIDES} - Price refinements

  • Brand New
    Save up to 10% when you buy more
    Top Rated Plus
    Buy It Now
    From United States
  • Traveling Wilburys - The Traveling Wilburys, Vol. 1 (CD)

    FREE UK Delivery 100% official UK item
    From United Kingdom
    Buy It Now
    Customs services and international tracking provided
    53 Sold53 Sold
  • The Traveling Wilburys - Traveling Wilburys, Vol. 3 (1990) CD

    Pre-Owned
    From United Kingdom
    Buy It Now
  • The Traveling Wilburys Collection [Limited] NEW 2-CD/1-DVD Box Set (2007, Rhino)

    Brand New
    Save up to 10% when you buy more
    Top Rated Plus
    Buy It Now
    From United States
  • THE TRAVELING WILBURYS - CD - Vol 1 & Vol 3 And Bonus - BRAND NEW

    Brand New
    Top Rated Plus
    Buy It Now
    From United StatesCustoms services and international tracking provided
  • The Traveling Wilburys CD/DVD Collection Digipak w Booklet TOM PETTY ORBISON

    Pre-Owned
    From United States
    Buy It Now
    Customs services and international tracking provided
  • THE TRAVELING WILBURYS-TRAVELING WILBURYS COLLECTION (LIMITED DLX)2CD+DVD NEW+

    Brand New
    From Germany
    Buy It Now
  • The Traveling Wilburys - The Traveling Wilburys, Vol. 3 (NEW CD)

    Brand New
    From United Kingdom
    List price: Previous Price$18.29
    +$2.44 shipping
  • TRAVELING WILBURYS, THE - TRAVELING WILBURYS VOL 1 - CD - NEW

    Brand New
    From Canada
    Buy It Now
  • The Traveling Wilburys - Vol 1 CD 1988 Pre-Owned Excellent Cond Petty Orbison

    Pre-Owned
    Top Rated Plus
    Buy It Now
    From United States
  • The Traveling Wilburys Collection 2007 Limited Ed. Remastered Numbered R2 167868

    Brand New
    From United States
    or Best Offer
    Customs services and international tracking provided
  • The Traveling Wilburys Remastered Box Set Limited Edition - CD/DVD SEALED

    Brand New
    From United States
    or Best Offer
    Customs services and international tracking provided
  • The Traveling Wilburys Volume 1 (CD)

    Pre-Owned
    From United States
    or Best Offer
    Customs services and international tracking provided
  • THE TRAVELING WILBURYS - 2 CDs + 1 DVD + BONUS TRACKS BOX SET (NEW & SEALED)

    Brand New
    From United Kingdom
    Buy It Now
    Customs services and international tracking provided
  • The Traveling Wilburys Collection Second Edition CD Box Set Sealed 2 CD 1 DVD

    Brand New
    Top Rated Plus
    Buy It Now
    From United StatesCustoms services and international tracking provided
  • Brand New
    From Germany
    Buy It Now
  • Pre-Owned
    Top Rated Plus
    Was: Previous Price$9.99
    From United States
    +$6.00 shipping

Traveling Wilburys – The Traveling Wilburys Collection (2007) {2CDs + DVD}
EAC Rip 2xCD FLAC Image + Cue + Log) Full Scans @600 dpi, JPG
DVD5 VIDEO_TS Video: NTSC 4:3 (720×480) VBR Audio: English LPCM, 2 ch
FLAC: 645 MB DVD: 3.04 GB Scans: 219 MB 3% RAR Recovery
Label: Rhino Cat#: R2 167804 Genre: Folk Rock

The Traveling Wilburys Collection is a 2007 box set compilation album comprising both albums by the Traveling Wilburys, a DVD with their videos and a documentary about the group. The set was released 11 June 2007 by Rhino, in association with Wilbury Records. The album went straight to number 1 in several countries.

Personnel / Credits:
• Nelson & Spike Wilbury (all tracks) – lead guitar, mandolin, sitar, vocals
• Clayton & Otis Wilbury (all tracks) – guitar, keyboards, bass, vocals, lead guitar on “Maxine”
• Charlie & Muddy Wilbury (all tracks) – guitar, bass, vocals
• Lucky & Boo Wilbury (all tracks) – guitar, harmonica, vocals
• Lefty Wilbury (most tracks) – guitar, vocals
Additional musicians
• Buster Sidebury – drums, percussion
• Jim Horn – saxophones
• Ray Cooper – percussion
• Ian Wallace – tom toms on “Handle With Care”
• Gary Moore – lead guitar on “She’s My Baby”
• Dhani Harrison – lead guitar on “Like A Ship”, backing vocals on “Maxine” and “Like A Ship”

Additional Info:
• Recorded Date: 1987–1990
• Released Date: June 11, 2007
• Producer: Otis Wilbury, Nelson Wilbury, Clayton Wilbury, Spike Wilbury
• More info: Here

Disc 1 – Traveling Wilburys Vol.1:
01. Handle With Care – 3:20
02. Dirty Dorld – 3:30
03. Rattled – 2:59
04. Last Night – 3:51
05. Not Alone Any More – 3:25
06. Congratulations – 3:30
07. Heading For The Light – 3:37
08. Margarita – 3:17
09. Tweeter And The Monkey Man – 5:28
10. End Of The Line – 3:30
Bonus Tracks
11. Maxine – 2:49
12. Like A Ship – 3:31

Disc 2 – DVD
* The True History of the Traveling Wilburys documentary – 24 minutes
* Handle With Care (video)
* End of the Line (video)
* She’s My Baby (video)
* Inside Out (video)
* Wilbury Twist (video)

Disc 3 – Traveling Wilburys Vol.3
01. She’s My Baby – 3:15
02. Inside Out – 3:36
03. If You Belonged To Me – 3:14
04. The Devil’s Been Busy – 3:18
05. 7 Deadly Sins – 3:18
06. Poor House – 3:17
07. Where Were You Last Night? – 3:04
08. Cool Dry Place – 3:37
09. New Blue Moon – 3:20
10. You Took My Breath Away – 3:19
11. Wilbury Twist – 2:58
Bonus Tracks
12. Nobody’s Child – 3:29
13. Runaway – 2:31

Exact Audio Copy V1.0 beta 3 from 29. August 2011

EAC extraction logfile from 16. March 2015, 18:48

Traveling Wilburys / Volume 1

Used drive : PLEXTOR DVDR PX-L890SA Adapter: 2 ID: 1

Read mode : Secure
Utilize accurate stream : Yes
Defeat audio cache : Yes
Make use of C2 pointers : No

Read offset correction : 6
Overread into Lead-In and Lead-Out : No
Fill up missing offset samples with silence : Yes
Delete leading and trailing silent blocks : No
Null samples used in CRC calculations : Yes
Used interface : Native Win32 interface for Win NT & 2000

Used output format : User Defined Encoder
Selected bitrate : 768 kBit/s
Quality : High
Add ID3 tag : No
Command line compressor : G:Program FilesExact Audio CopyFLACFLAC.EXE
Additional command line options : -V -8 -T 'Date=%year%' -T 'Genre=%genre%' %source%

TOC of the extracted CD

Track Start Length Start sector End sector
---------------------------------------------------------
1 0:00.00 3:19.44 0 14968
2 3:19.44 3:29.44 14969 30687
3 6:49.13 2:59.17 30688 44129
4 9:48.30 3:51.18 44130 61472
5 13:39.48 3:24.42 61473 76814
6 17:04.15 3:29.45 76815 92534
7 20:33.60 3:36.52 92535 108786
8 24:10.37 3:16.38 108787 123524
9 27:27.00 5:27.64 123525 148113
10 32:54.64 3:29.39 148114 163827
11 36:24.28 2:49.01 163828 176503
12 39:13.29 3:30.53 176504 192306

Range status and errors

Selected range

Filename H:MUSIC2007. Traveling Wilburys - Volume 1 & 3 (Rhino R2 167804, USA)Traveling Wilburys - Volume 1.wav

Wilburys

Peak level 98.8 %
Extraction speed 5.7 X
Range quality 100.0 %
Test CRC AA8FAD74
Copy CRC AA8FAD74
Copy OK

No errors occurred

AccurateRip summary

Track 1 accurately ripped (confidence 181) [B53D2AFD] (AR v2)
Track 2 accurately ripped (confidence 177) [374E7F89] (AR v2)
Track 3 accurately ripped (confidence 178) [9826A651] (AR v2)
Track 4 accurately ripped (confidence 176) [2B000916] (AR v2)
Track 5 accurately ripped (confidence 178) [D6DAA722] (AR v2)
Track 6 accurately ripped (confidence 177) [FCC89423] (AR v2)
Track 7 accurately ripped (confidence 178) [90D1E52E] (AR v2)
Track 8 accurately ripped (confidence 175) [C5420CFB] (AR v2)
Track 9 accurately ripped (confidence 176) [6F564BDC] (AR v2)
Track 10 accurately ripped (confidence 176) [8B9536EF] (AR v2)
Track 11 accurately ripped (confidence 174) [74B68CE1] (AR v2)
Track 12 accurately ripped (confidence 176) [972B6520] (AR v2)

All tracks accurately ripped

End of status report

Log checksum 7D04D2A672A5CF9E6E2CD296B835F67D8DEF60A1C13543FAEBD85B1B9AAF3133
[_/su_spoiler]

Exact Audio Copy V1.0 beta 3 from 29. August 2011

EAC extraction logfile from 16. March 2015, 19:41

TRAVELING WILBURYS / Volume 3

Used drive : PLEXTOR DVDR PX-L890SA Adapter: 2 ID: 1

Read mode : Secure
Utilize accurate stream : Yes
Defeat audio cache : Yes
Make use of C2 pointers : No

Read offset correction : 6
Overread into Lead-In and Lead-Out : No
Fill up missing offset samples with silence : Yes
Delete leading and trailing silent blocks : No
Null samples used in CRC calculations : Yes
Used interface : Native Win32 interface for Win NT & 2000

Used output format : User Defined Encoder
Selected bitrate : 768 kBit/s
Quality : High
Add ID3 tag : No
Command line compressor : G:Program FilesExact Audio CopyFLACFLAC.EXE
Additional command line options : -V -8 -T 'Date=%year%' -T 'Genre=%genre%' %source%

TOC of the extracted CD

Track Start Length Start sector End sector
---------------------------------------------------------
1 0:00.00 3:15.00 0 14624
2 3:15.00 3:35.43 14625 30792
3 6:50.43 3:13.42 30793 45309
4 10:04.10 3:18.24 45310 60183
5 13:22.34 3:17.39 60184 74997
6 16:39.73 3:16.46 74998 89743
7 19:56.44 3:03.70 89744 103538
8 23:00.39 3:37.18 103539 119831
9 26:37.57 3:20.32 119832 134863
10 29:58.14 3:18.66 134864 149779
11 33:17.05 2:58.28 149780 163157
12 36:15.33 3:28.48 163158 178805
13 39:44.06 2:30.72 178806 190127

Range status and errors

Selected range

Filename H:MUSIC2007. Traveling Wilburys - Volume 1 & 3 (Rhino R2 167804, USA)Traveling Wilburys - Volume 3.wav

The Traveling Wilburys Members

Peak level 98.8 %
Extraction speed 5.7 X
Range quality 100.0 %
Test CRC 4BE22BF1
Copy CRC 4BE22BF1
Copy OK

No errors occurred

AccurateRip summary

Track 1 accurately ripped (confidence 159) [F23AFE2D] (AR v2)
Track 2 accurately ripped (confidence 158) [0712E99C] (AR v2)
Track 3 accurately ripped (confidence 158) [CCDAA7FC] (AR v2)
Track 4 accurately ripped (confidence 158) [37486CD4] (AR v2)
Track 5 accurately ripped (confidence 159) [7F223DEF] (AR v2)
Track 6 accurately ripped (confidence 159) [088C4D16] (AR v2)
Track 7 accurately ripped (confidence 159) [EE221737] (AR v2)
Track 8 accurately ripped (confidence 158) [FEB37E29] (AR v2)
Track 9 accurately ripped (confidence 159) [36049E27] (AR v2)
Track 10 accurately ripped (confidence 158) [67217734] (AR v2)
Track 11 accurately ripped (confidence 159) [45CEF23B] (AR v2)
Track 12 accurately ripped (confidence 159) [69AC7569] (AR v2)
Track 13 accurately ripped (confidence 159) [E9E037A9] (AR v2)

All tracks accurately ripped

End of status report

Log checksum E58C6014644638ADD7BB2C148A712CB9C376F183698932DB28EE0A7DC358771B
[_/su_spoiler]

[CUETools log; Date: 16.03.2015 20:42:30; Version: 2.1.2a]
HDCD: peak extend: none, transient filter: none, gain: none
[CTDB TOCID: 5sWCcxtnq5Jy0WQ5aQ79EHe9iGk-] found.
[ CTDBID ] Status
[aec7d78c] (297/300) Accurately ripped
[ac91ebed] (001/300) No match
[ba1f5030] (001/300) No match
[a46ea2ce] (001/300) No match
[AccurateRip ID: 0012d30b-00b0f807-8f0a040c] found.
Track [ CRC ] Status
01 [ab51ca2a] (200/1054) Accurately ripped
02 [5a657afa] (200/1045) Accurately ripped
03 [89c54d10] (200/1047) Accurately ripped
04 [594e615d] (200/1045) Accurately ripped
05 [dbe7aea8] (200/1048) Accurately ripped
06 [a71fee38] (200/1043) Accurately ripped
07 [3f762c19] (200/1046) Accurately ripped
08 [ea3f6117] (200/1040) Accurately ripped
09 [b30cc732] (200/1042) Accurately ripped
10 [72bcf804] (200/1048) Accurately ripped
11 [20fbc815] (200/1037) Accurately ripped
12 [1aabe8a1] (200/1038) Accurately ripped
AccurateRip v2:
01 [b53d2afd] (181/1054) Accurately ripped
02 [374e7f89] (177/1045) Accurately ripped
03 [9826a651] (178/1047) Accurately ripped
04 [2b000916] (176/1045) Accurately ripped
05 [d6daa722] (178/1048) Accurately ripped
06 [fcc89423] (177/1043) Accurately ripped
07 [90d1e52e] (178/1046) Accurately ripped
08 [c5420cfb] (175/1040) Accurately ripped
09 [6f564bdc] (176/1042) Accurately ripped
10 [8b9536ef] (176/1048) Accurately ripped
11 [74b68ce1] (174/1037) Accurately ripped
12 [972b6520] (176/1038) Accurately ripped
Offsetted by -688:
01 [fd3528a2] (005/1054) Accurately ripped
02 [d0722744] (005/1045) Accurately ripped
03 [4cd9dfb1] (005/1047) Accurately ripped
04 [d427e19c] (005/1045) Accurately ripped
05 [0b38567e] (005/1048) Accurately ripped
06 [7e9ba4a3] (005/1043) Accurately ripped
07 [5dda3a7a] (005/1046) Accurately ripped
08 [9304553a] (005/1040) Accurately ripped
09 [b40ae501] (005/1042) Accurately ripped
10 [b6e653ce] (005/1048) Accurately ripped
11 [94fd0ae2] (005/1037) Accurately ripped
12 [1c5bcc34] (005/1038) Accurately ripped
Offsetted by -661:
01 [51e4cd29] (002/1054) Accurately ripped
02 [5c98b603] (002/1045) Accurately ripped
03 [188fe311] (002/1047) Accurately ripped
04 [232654f7] (002/1045) Accurately ripped
05 [da69d58c] (002/1048) Accurately ripped
06 [4171ab96] (002/1043) Accurately ripped
07 [ec4f6a53] (002/1046) Accurately ripped
08 [53b32d6a] (002/1040) Accurately ripped
09 [9b6dd527] (002/1042) Accurately ripped
10 [638d76a2] (002/1048) Accurately ripped
11 [3650abe8] (002/1037) Accurately ripped
12 [aa60127b] (002/1038) Accurately ripped
Offsetted by -640:
01 [7497d189] (067/1054) Accurately ripped
02 [ef78f868] (066/1045) Accurately ripped
03 [f9b1570b] (066/1047) Accurately ripped
04 [2f66408b] (068/1045) Accurately ripped
05 [c19d9d77] (067/1048) Accurately ripped
06 [e9c78ad2] (066/1043) Accurately ripped
07 [6d9eafc5] (066/1046) Accurately ripped
08 [f697ebc1] (066/1040) Accurately ripped
09 [52f40ccf] (066/1042) Accurately ripped
10 [66ad1fee] (067/1048) Accurately ripped
11 [21cc4582] (066/1037) Accurately ripped
12 [c47cf330] (065/1038) Accurately ripped
Offsetted by -104:
01 [d9634995] (007/1054) Accurately ripped
02 [c791933b] (007/1045) Accurately ripped
03 [13784f81] (007/1047) Accurately ripped
04 [ac09d009] (007/1045) Accurately ripped
05 [22fa1536] (007/1048) Accurately ripped
06 [7bd8db51] (007/1043) Accurately ripped
07 [c0bf8116] (007/1046) Accurately ripped
08 [dd68b31d] (007/1040) Accurately ripped
09 [678ca0b8] (007/1042) Accurately ripped
10 [66d7b0b1] (007/1048) Accurately ripped
11 [10deb5f9] (007/1037) Accurately ripped
12 [bd7bcfa7] (007/1038) Accurately ripped
Offsetted by -60:
01 [feb52a06] (002/1054) Accurately ripped
02 [761107a8] (002/1045) Accurately ripped
03 [094a54e6] (002/1047) Accurately ripped
04 [6ffa8abc] (002/1045) Accurately ripped
05 [31b076cf] (002/1048) Accurately ripped
06 [9eb1421e] (002/1043) Accurately ripped
07 [e72f2b48] (002/1046) Accurately ripped
08 [26e87d02] (002/1040) Accurately ripped
09 [9b71576e] (002/1042) Accurately ripped
10 [004e31e4] (002/1048) Accurately ripped
11 [31eb99c0] (002/1037) Accurately ripped
12 [458734a0] (002/1038) Accurately ripped
Offsetted by -6:
01 [5f3c7754] (046/1054) Accurately ripped
02 [661c04ba] (045/1045) Accurately ripped
03 [9ea522d5] (045/1047) Accurately ripped
04 [e2240e94] (046/1045) Accurately ripped
05 [3feb03b5] (045/1048) Accurately ripped
06 [cb6c9b00] (044/1043) Accurately ripped
07 [d22afe40] (045/1046) Accurately ripped
08 [ba147ffa] (044/1040) Accurately ripped
09 [d005c24c] (046/1042) Accurately ripped
10 [e40a79b4] (046/1048) Accurately ripped
11 [d7c78843] (044/1037) Accurately ripped
12 [9ebc8a14] (043/1038) Accurately ripped
Offsetted by 6:
01 [0d8f1d00] (200/1054) Accurately ripped
02 [33dce014] (200/1045) Accurately ripped
03 [d8e3a781] (200/1047) Accurately ripped
04 [d082b421] (200/1045) Accurately ripped
05 [76ca0c48] (200/1048) Accurately ripped
06 [9a3c6214] (200/1043) Accurately ripped
07 [4e6c59f5] (200/1046) Accurately ripped
08 [57c92f9a] (200/1040) Accurately ripped
09 [bba32e0f] (200/1042) Accurately ripped
10 [f2e37680] (200/1048) Accurately ripped
11 [9d86f4ac] (200/1037) Accurately ripped
12 [96a94725] (200/1038) Accurately ripped
Offsetted by -134:
01 [4d3f4833] (000/1054) No match but offset
02 [518b4c12] (000/1045) No match but offset
03 [4f0deb8d] (000/1047) No match but offset
04 [844766ac] (000/1045) No match but offset
05 [db0c9a6d] (000/1048) No match but offset
06 [37eae46a] (000/1043) No match but offset
07 [f07bdf7f] (000/1046) No match but offset
08 [9bd9fe30] (000/1040) No match but offset
09 [37afb851] (000/1042) No match but offset
10 [a4785517] (000/1048) No match but offset
11 [08b02c32] (000/1037) No match but offset
12 [56d5f1df] (000/1038) No match but offset
Offsetted by -120:
01 [4ef11071] (002/1054) Accurately ripped
02 [b2656034] (000/1045) No match
03 [e7cdc202] (002/1047) Accurately ripped
04 [568f7d86] (000/1045) No match
05 [a3e51b98] (002/1048) Accurately ripped
06 [cc0d8050] (000/1043) No match
07 [bb22b85a] (002/1046) Accurately ripped
08 [90ba8875] (000/1040) No match
09 [e6cbfd57] (000/1042) No match
10 [9f3b7157] (002/1048) Accurately ripped
11 [ca403f05] (000/1037) No match
12 [756e7bae] (000/1038) No match
Offsetted by -114:
01 [004f6315] (000/1054) No match
02 [9d37cdfd] (000/1045) No match
03 [d317ec42] (000/1047) No match
04 [36a4005d] (000/1045) No match
05 [3eaf7939] (000/1048) No match
06 [b338de5e] (000/1043) No match
07 [6ac7447e] (000/1046) No match
08 [4b461b32] (000/1040) No match
09 [4f232bcc] (000/1042) No match
10 [2909ecfc] (000/1048) No match
11 [89fd7dd8] (000/1037) No match but offset
12 [f063db31] (000/1038) No match but offset
Offsetted by -36:
01 [89e77520] (000/1054) No match but offset
02 [00f0cf6d] (000/1045) No match but offset
03 [7d0ec3d3] (000/1047) No match but offset
04 [53e40b5f] (000/1045) No match but offset
05 [38433b2e] (000/1048) No match but offset
06 [47cacfb4] (000/1043) No match but offset
07 [d4ab2d02] (000/1046) No match but offset
08 [eb9f172d] (000/1040) No match but offset
09 [7d4f80de] (000/1042) No match but offset
10 [26ab1e5f] (000/1048) No match but offset
11 [47a970ae] (000/1037) No match
12 [33cbb076] (000/1038) No match
Offsetted by 12:
01 [be36bdc0] (000/1054) No match
02 [30294dcb] (000/1045) No match
03 [f3559c86] (000/1047) No match
04 [484ba194] (000/1045) No match
05 [b85c69eb] (000/1048) No match
06 [81e5cb07] (000/1043) No match
07 [ce191568] (000/1046) No match
08 [4c9410c2] (000/1040) No match
09 [c520329e] (000/1042) No match
10 [8210f23f] (002/1048) Accurately ripped
11 [2cd76616] (000/1037) No match but offset
12 [12bfa5a1] (000/1038) No match

Track Peak [ CRC32 ] [W/O NULL] [ LOG ]
-- 98,8 [AA8FAD74] [662043BE] CRC32
01 98,8 [8CA15A7C] [574BAD32]
02 98,8 [FC4FDF90] [8EFDF4F8]
03 98,8 [223E9AD0] [5A31D5FE]
04 98,8 [35FFA4A5] [87443E65]
05 98,8 [CD20C447] [49086480]
06 98,8 [E55B97BA] [5DAD801D]
07 98,8 [C959EB7A] [C46D31B9]
08 98,8 [DD8F0311] [8FB0B4FA]
09 98,8 [09D30D53] [EE7EEA67]
10 98,8 [7669482B] [82E42BD8]
11 98,8 [AA3D7433] [916DAE1A]
12 98,8 [077697DB] [86D1FBFF]
[_/su_spoiler]

[CUETools log; Date: 16.03.2015 20:42:55; Version: 2.1.2a]
HDCD: peak extend: none, transient filter: none, gain: none
[CTDB TOCID: pU84fmXOq6QDp17fTg62Gkf5gUA-] found.
[ CTDBID ] Status
[3d32a3c4] (270/271) Accurately ripped
[46f16626] (001/271) No match
[AccurateRip ID: 0014aff1-00ce7054-b609e70d] found.
Track [ CRC ] Status
01 [b6d89f1c] (196/977) Accurately ripped
02 [4514f097] (194/974) Accurately ripped
03 [9d7e4502] (191/973) Accurately ripped
04 [45091dd3] (195/974) Accurately ripped
05 [5a6d1e5c] (197/976) Accurately ripped
06 [1c8dc4ac] (195/974) Accurately ripped
07 [4c12ae9f] (197/975) Accurately ripped
08 [ff445ac4] (197/976) Accurately ripped
09 [2645bbd3] (198/978) Accurately ripped
10 [622021e4] (195/973) Accurately ripped
11 [7da48f6b] (197/980) Accurately ripped
12 [55270c5a] (197/976) Accurately ripped
13 [2b5b05ea] (194/973) Accurately ripped
AccurateRip v2:
01 [f23afe2d] (159/977) Accurately ripped
02 [0712e99c] (158/974) Accurately ripped
03 [ccdaa7fc] (158/973) Accurately ripped
04 [37486cd4] (158/974) Accurately ripped
05 [7f223def] (159/976) Accurately ripped
06 [088c4d16] (159/974) Accurately ripped
07 [ee221737] (159/975) Accurately ripped
08 [feb37e29] (158/976) Accurately ripped
09 [36049e27] (159/978) Accurately ripped
10 [67217734] (158/973) Accurately ripped
11 [45cef23b] (159/980) Accurately ripped
12 [69ac7569] (159/976) Accurately ripped
13 [e9e037a9] (159/973) Accurately ripped
Offsetted by -1304:
01 [f255f920] (033/977) Accurately ripped
02 [e7b399db] (033/974) Accurately ripped
03 [ad3569e9] (032/973) Accurately ripped
04 [fb0176e8] (033/974) Accurately ripped
05 [246303fd] (032/976) Accurately ripped
06 [3d25f499] (033/974) Accurately ripped
07 [edc0897e] (033/975) Accurately ripped
08 [f851818d] (033/976) Accurately ripped
09 [38518b53] (033/978) Accurately ripped
10 [f20b0b45] (033/973) Accurately ripped
11 [07065a02] (033/980) Accurately ripped
12 [fab8656d] (033/976) Accurately ripped
13 [0af384eb] (033/973) Accurately ripped
Offsetted by -688:
01 [58523287] (004/977) Accurately ripped
02 [bec3562e] (004/974) Accurately ripped
03 [6e87bb57] (004/973) Accurately ripped
04 [49f668d7] (004/974) Accurately ripped
05 [0661f991] (004/976) Accurately ripped
06 [b3a68ac3] (004/974) Accurately ripped
07 [2683ab89] (003/975) Accurately ripped
08 [1f0a4327] (004/976) Accurately ripped
09 [dd0d1161] (004/978) Accurately ripped
10 [c9bb6a74] (004/973) Accurately ripped
11 [c42f6bce] (004/980) Accurately ripped
12 [0eedb55b] (004/976) Accurately ripped
13 [36f8e1d1] (004/973) Accurately ripped
Offsetted by -661:
01 [678f6d05] (002/977) Accurately ripped
02 [003e9e14] (002/974) Accurately ripped
03 [8bfe8712] (002/973) Accurately ripped
04 [840cc5c6] (002/974) Accurately ripped
05 [1c54029f] (002/976) Accurately ripped
06 [c6b5f646] (002/974) Accurately ripped
07 [1043ca16] (002/975) Accurately ripped
08 [b78ecc77] (002/976) Accurately ripped
09 [b561a852] (002/978) Accurately ripped
10 [b484575d] (002/973) Accurately ripped
11 [c88c10e4] (002/980) Accurately ripped
12 [4c4076f8] (002/976) Accurately ripped
13 [0e836ebb] (002/973) Accurately ripped
Offsetted by -640:
01 [706a1906] (028/977) Accurately ripped
02 [85ede5bb] (028/974) Accurately ripped
03 [76c390b7] (028/973) Accurately ripped
04 [61629799] (029/974) Accurately ripped
05 [a64621b2] (029/976) Accurately ripped
06 [2b5abb3d] (029/974) Accurately ripped
07 [a7ac0449] (028/975) Accurately ripped
08 [1a3b3933] (028/976) Accurately ripped
09 [61becad4] (028/978) Accurately ripped
10 [13a128bc] (028/973) Accurately ripped
11 [099e62eb] (029/980) Accurately ripped
12 [72b1e4ff] (029/976) Accurately ripped
13 [b6d2826b] (029/973) Accurately ripped
Offsetted by -104:
01 [6ec84895] (003/977) Accurately ripped
02 [9212393f] (003/974) Accurately ripped
03 [b044ac04] (002/973) Accurately ripped
04 [f529f13e] (003/974) Accurately ripped
05 [51db1c67] (002/976) Accurately ripped
06 [7a86ad1d] (002/974) Accurately ripped
07 [0f5b1c76] (002/975) Accurately ripped
08 [a93b2801] (002/976) Accurately ripped
09 [99700b8f] (003/978) Accurately ripped
10 [f32aa99c] (002/973) Accurately ripped
11 [bde3dfbe] (003/980) Accurately ripped
12 [9d8eb7e6] (003/976) Accurately ripped
13 [75b35c77] (003/973) Accurately ripped
Offsetted by -62:
01 [5d62fa72] (002/977) Accurately ripped
02 [1dc377b6] (002/974) Accurately ripped
03 [8ab1fea4] (002/973) Accurately ripped
04 [9bdb9724] (002/974) Accurately ripped
05 [6601c6ea] (002/976) Accurately ripped
06 [56d2504e] (002/974) Accurately ripped
07 [50ca6561] (002/975) Accurately ripped
08 [b9cf2e41] (002/976) Accurately ripped
09 [972d5338] (002/978) Accurately ripped
10 [89b59a6e] (002/973) Accurately ripped
11 [03698cd3] (002/980) Accurately ripped
12 [85ad5e16] (002/976) Accurately ripped
13 [13fa710c] (002/973) Accurately ripped
Offsetted by -60:
01 [701c29fa] (003/977) Accurately ripped
02 [e21f3250] (003/974) Accurately ripped
03 [709daa32] (003/973) Accurately ripped
04 [aa2149b4] (003/974) Accurately ripped
05 [6160bf84] (003/976) Accurately ripped
06 [103c2366] (003/974) Accurately ripped
07 [8cc86344] (003/975) Accurately ripped
08 [e232186c] (003/976) Accurately ripped
09 [a4f9b1c6] (003/978) Accurately ripped
10 [0cf2888d] (003/973) Accurately ripped
11 [a8704b93] (003/980) Accurately ripped
12 [26749bcd] (003/976) Accurately ripped
13 [fc85720b] (003/973) Accurately ripped
Offsetted by -6:
01 [b4e73137] (043/977) Accurately ripped
02 [f7fac0ce] (043/974) Accurately ripped
03 [ecaf4266] (041/973) Accurately ripped
04 [8e190633] (043/974) Accurately ripped
05 [f7bb8ce9] (043/976) Accurately ripped
06 [8507d004] (043/974) Accurately ripped
07 [d21bef8c] (043/975) Accurately ripped
08 [57319c3b] (043/976) Accurately ripped
09 [b8a3044c] (043/978) Accurately ripped
10 [595b328e] (043/973) Accurately ripped
11 [8f4b6258] (043/980) Accurately ripped
12 [6d5d8835] (042/976) Accurately ripped
13 [84b07937] (040/973) Accurately ripped
Offsetted by 6:
01 [b7b29d6b] (200/977) Accurately ripped
02 [730b3036] (200/974) Accurately ripped
03 [ceca47aa] (200/973) Accurately ripped
04 [159f1cdc] (200/974) Accurately ripped
05 [d2abc5ea] (200/976) Accurately ripped
06 [5006070c] (200/974) Accurately ripped
07 [14c41d89] (200/975) Accurately ripped
08 [d5c4ea51] (200/976) Accurately ripped
09 [92e1b616] (200/978) Accurately ripped
10 [68bac079] (200/973) Accurately ripped
11 [6558cbb4] (200/980) Accurately ripped
12 [3b575ff3] (200/976) Accurately ripped
13 [5aec7f2c] (200/973) Accurately ripped
Offsetted by 12:
01 [f0d2d383] (002/977) Accurately ripped
02 [d09a6fd6] (002/974) Accurately ripped
03 [001c4a50] (002/973) Accurately ripped
04 [b4053474] (002/974) Accurately ripped
05 [f3185761] (003/976) Accurately ripped
06 [9b53e4e5] (002/974) Accurately ripped
07 [3e211738] (003/975) Accurately ripped
08 [dcf006ce] (003/976) Accurately ripped
09 [beda2ae1] (002/978) Accurately ripped
10 [c77f333f] (002/973) Accurately ripped
11 [4d0e07f7] (002/980) Accurately ripped
12 [88a9e40b] (002/976) Accurately ripped
13 [012a822c] (002/973) Accurately ripped
Offsetted by -634:
01 [aefa4ed7] (000/977) No match
02 [d21305d6] (000/974) No match
03 [e6621402] (000/973) No match
04 [a6299661] (000/974) No match
05 [f17ddf9a] (000/976) No match
06 [124498b9] (000/974) No match
07 [5a9f733d] (000/975) No match but offset
08 [4f1cf800] (000/976) No match but offset
09 [ce7ac4cb] (000/978) No match but offset
10 [47b44443] (000/973) No match but offset
11 [e1e19eea] (000/980) No match
12 [24a69e44] (000/976) No match
13 [49f50f01] (000/973) No match
Offsetted by -120:
01 [7a8fd60c] (000/977) No match
02 [9faa747c] (000/974) No match
03 [c1e3cfe7] (000/973) No match
04 [dfb7b806] (000/974) No match
05 [51b64a9c] (000/976) No match
06 [a1158230] (000/974) No match
07 [1a25f2c4] (000/975) No match
08 [4d6234b0] (000/976) No match
09 [2742221b] (000/978) No match
10 [57c8c2ce] (000/973) No match
11 [b492f15e] (002/980) Accurately ripped
12 [28b9c9fe] (000/976) No match
13 [bb3154b7] (000/973) No match
Offsetted by -114:
01 [b442d44a] (000/977) No match but offset
02 [ec9ea435] (000/974) No match but offset
03 [b35ad2a7] (000/973) No match but offset
04 [95c0e834] (000/974) No match but offset
05 [b4fbc5fc] (000/976) No match but offset
06 [38f5c48c] (000/974) No match but offset
07 [929d61a2] (000/975) No match but offset
08 [235f9534] (000/976) No match but offset
09 [30b9d9a9] (000/978) No match but offset
10 [8bfdddfc] (000/973) No match but offset
11 [9c152d96] (000/980) No match but offset
12 [da0d1db7] (000/976) No match but offset
13 [eb10579f] (000/973) No match but offset

Track Peak [ CRC32 ] [W/O NULL] [ LOG ]
-- 98,8 [4BE22BF1] [CB1AD41C] CRC32
01 98,8 [77150B8F] [94FB7E55]
02 98,8 [7ACED71E] [5DDBD776]
03 98,8 [4CFB6C18] [948A3123]
04 98,8 [3F2BADD5] [E57FE72D]
05 98,8 [A37704CD] [221F4511]
06 98,8 [1799B254] [44AF821B]
07 98,8 [DE669A78] [E97B847A]
08 98,8 [E7797BF4] [CA881AD2]
09 98,8 [B6AE9EF7] [6A1C9178]
10 98,8 [A0D55B46] [36E49651]
11 98,8 [69AB78DA] [897CB120]
12 98,8 [9E49DBAA] [847951CF]
13 98,8 [5ED6B424] [43D60DFA]
[_/su_spoiler]

Title: DVD
Size: 2.96 Gb ( 3 104 370 KBytes ) – DVD-5

Youtube The Traveling Wilburys


Enabled regions: 1, 2, 3, 4, 5, 6, 7, 8

VTS_01 :
Play Length: 00:24:53+00:03:18+00:03:27+00:03:12+00:03:33+00:02:56+00:41:18
Video: NTSC 16:9 (720×480) VBR, Auto Pan&Scan
Audio:
English (LinearPCM, 2 ch)
Subtitles:
English
Francais
Russian
Portugues
Japanese
Deutsch
Nederlands
Italiano

Download From
LMA_TrWi.2007.C_CD1.rar
LMA_TrWi.2007.C_CD2.rar
LMA_TrWi.2007.C_DVD.part1.rar
LMA_TrWi.2007.C_DVD.part2.rar
LMA_TrWi.2007.C_DVD.part3.rar
LMA_TrWi.2007.C_DVD.part4.rar
LMA_TrWi.2007.C_Scans.rar
Password: www.LosslessMA.net
If you encounter broken links or other problem about this publication, please let me know
and write your comment below. I will reply and fix as soon as possible.